Quick filter Tv shows only Movies only Games only Application only Music only E-books only


» » » Sherlock Holmes A Game of Shadows (2011) DVDRip XviD-MAXSPEED

looking for more ? search irfree.com .


Sherlock Holmes A Game of Shadows (2011) DVDRip XviD-MAXSPEED


2:54 pm Comments: 0 Catgory: Movies » DVDRiP

 

Sherlock Holmes A Game of Shadows (2011) DVDRip XviD-MAXSPEED
Format : AVI
File size : 1.31 GiB
Duration : 2h 8mn
Overall bit rate : 1 456 Kbps

Video Codec ID/Hint : XviD
Duration : 2h 8mn
Bit rate : 1 131 Kbps
Width : 640 pixels
Height : 272 pixels
Display aspect ratio : 2.35:1
Frame rate : 23.976 fps
Resolution : 24 bits
Colorimetry : 4:2:0
Scan type : Progressive
Bits/(Pixel*Frame) : 0.271
Stream size : 1.02 GiB (78%)
Writing library : XviD 1.2.1 (UTC 2008-12-04)

Audio Format : AC-3
Format/Info : Audio Coding 3
Codec ID : 2000
Duration : 2h 8mn
Bit rate mode : Constant
Bit rate : 320 Kbps
Channel(s) : 6 channels
Channel positions : Front: L C R, Surround: L R, LFE
Sampling rate : 48.0 KHz
Stream size : 295 MiB (22%)
Alignment : Aligned on interleaves
Interleave, duration : 64 ms (1.53 video frames)
Interleave, preload duration : 192 ms

Genre: Action | Adventure | Crime
IMDB rating: 7.6/10 (79,743 users)
Directed by: Guy Ritchie
Starring: Robert Downey Jr., Jude Law and Jared Harris

 

 

 

Plot: Sherlock Holmes (Robert Downey Jr.) has always been the smartest man in the room…until now. There is a new criminal mastermind at large-Professor Moriarty (Jared Harris)-and not only is he Holmes’ intellectual equal, but his capacity for evil, coupled with a complete lack of conscience, may actually give him an advantage over the renowned detective. When the Crown Prince of Austria is found dead, the evidence, as construed by Inspector Lestrade (Eddie Marsan), points to suicide. But Sherlock Holmes deduces that the prince has been the victim of murder-a murder that is only one piece of a larger and much more portentous puzzle, designed by Professor Moriarty. The cunning Moriarty is always one step ahead of Holmes as he spins a web of death and destruction-all part of a greater plan that, if he succeeds, will change the course of history.
http://www.imdb.com/title/tt1515091/

 

 

 

 


 



Download:


http://ryushare.com/313423485e93/Sherlock_Holmes_A_Game_of_Shadows_(2011)_DVDRip_XviD-MAXSPEED


http://extabit.com/file/2dbl5i2zjhny2/Sherlock Holmes A Game of Shadows (2011) DVDRip XviD-MAXSPEED

****************************************

Dear visitor, you are viewing Sherlock Holmes A Game of Shadows (2011) DVDRip XviD-MAXSPEED as Guest.
We strongly recommend you to register and login to view hidden contents.

We tried to provide download links from best sources on internet .
our source are clean , safe and will check for any malicious .


Feel free to report dead links or a problem in Sherlock Holmes A Game of Shadows (2011) DVDRip XviD-MAXSPEED files .Your are allow to post your (mirror , subtitles, samples, free download, quality, crack keygen or whatever-related post) comments here.

Sherlock Holmes A Game of Shadows (2011) DVDRip XviD-MAXSPEED

Free download Sherlock Holmes A Game of Shadows (2011) DVDRip XviD-MAXSPEED.
Information
Would you like to leave your comment? Please Login to your account to leave comments. Don't have an account? You can create a free account now.