Quick filter Tv shows only Movies only Games only Application only Music only E-books only


» » » Armin van Buuren - We Are Here To Make Some Noise (YT-1080p) mp4

looking for more ? search irfree.com .


Armin van Buuren - We Are Here To Make Some Noise (YT-1080p) mp4


10:14 am Comments: Catgory: Music » MViD

Armin van Buuren - We Are Here To Make Some Noise (YT-1080p).mp4
Format                                   : MPEG-4
Format profile                           : Base Media / Version 2
Codec ID                                 : mp42
File size                                : 73.2 MiB
Duration                                 : 3mn 18s
Overall bit rate mode                    : Variable
Overall bit rate                         : 3 086 Kbps
Encoded date                             : UTC 2012-06-12 16:06:51
Tagged date                              : UTC 2012-06-12 16:06:51
gsst                                     : 0
gstd                                     : 199040
gssd                                     : B400F7108HH1339688169912744
gshh                                     : o-o.preferred.google-vie1.v13.lscache2.c.youtube.com

Video
ID                                       : 1
Format                                   : AVC
Format/Info                              : Advanced Video Codec
Format profile                           : High@L4.0
Format settings, CABAC                   : Yes
Format settings, ReFrames                : 1 frame
Codec ID                                 : avc1
Codec ID/Info                            : Advanced Video Coding
Duration                                 : 3mn 18s
Bit rate                                 : 2 934 Kbps
Maximum bit rate                         : 7 344 Kbps
Width                                    : 1 920 pixels
Height                                   : 1 080 pixels
Display aspect ratio                     : 16:9
Frame rate mode                          : Constant
Frame rate                               : 25.000 fps
Color space                              : YUV
Chroma subsampling                       : 4:2:0
Bit depth                                : 8 bits
Scan type                                : Progressive
Bits/(Pixel*Frame)                       : 0.057
Stream size                              : 69.6 MiB (95%)
Tagged date                              : UTC 2012-06-12 16:06:51

Audio
ID                                       : 2
Format                                   : AAC
Format/Info                              : Advanced Audio Codec
Format profile                           : LC
Codec ID                                 : 40
Duration                                 : 3mn 18s
Bit rate mode                            : Variable
Bit rate                                 : 149 Kbps
Maximum bit rate                         : 187 Kbps
Channel(s)                               : 2 channels
Channel positions                        : Front: L R
Sampling rate                            : 44.1 KHz
Compression mode                         : Lossy
Stream size                              : 3.54 MiB (5%)
Title                                    : IsoMedia File Produced by Google, 5-11-2011
Encoded date                             : UTC 2012-06-12 16:06:51
Tagged date                              : UTC 2012-06-12 16:06:51

 

 

 

http://letitbit.net/download/16417.1f25bbb0a3af51523b98221beefb/Armin_van_Buuren_-_We_Are_Here_To_Make_Some_Noise_%28YT-1080p%29.mp4.html

 

 

 

 

 

 

 

Dear visitor, you are viewing Armin van Buuren - We Are Here To Make Some Noise (YT-1080p) mp4 as Guest.
We strongly recommend you to register and login to view hidden contents.

We tried to provide download links from best sources on internet .
our source are clean , safe and will check for any malicious .


Feel free to report dead links or a problem in Armin van Buuren - We Are Here To Make Some Noise (YT-1080p) mp4 files .Your are allow to post your (mirror , subtitles, samples, free download, quality, crack keygen or whatever-related post) comments here.

Armin van Buuren - We Are Here To Make Some Noise (YT-1080p) mp4

Free download Armin van Buuren - We Are Here To Make Some Noise (YT-1080p) mp4.