Quick filter Tv shows only Movies only Games only Application only Music only E-books only


» » » Rick Ross ft Nicki Minaj - You The Boss.mp4

looking for more ? search irfree.com .


Rick Ross ft Nicki Minaj - You The Boss.mp4


2:08 pm Comments: Catgory: Music » MViD

 

 

 

General
Complete name : Rick Ross ft Nicki Minaj - You
The Boss.mp4
Format : MPEG-4
Format profile : Base Media / Version 2
Codec ID : mp42
File size : 97.6 MiB
Duration : 5mn 4s
Overall bit rate : 2 691 Kbps


Video
ID : 1
Format : AVC
Format/Info : Advanced Video Codec
Format profile : High@L3.1
Format settings, CABAC : Yes
Format settings, ReFrames : 1 frame
Format settings, GOP : M=1, N=60
Codec ID : avc1
Codec ID/Info : Advanced Video Coding
Duration : 5mn 4s
Bit rate : 2 533 Kbps
Maximum bit rate : 5 213 Kbps
Width : 1 280 pixels
Height : 720 pixels
Display aspect ratio : 16:9
Frame rate mode : Variable
Frame rate : 29.970 fps
Minimum frame rate : 29.412 fps
Maximum frame rate : 30.303 fps
Color space : YUV
Chroma subsampling : 4:2:0
Bit depth : 8 bits
Scan type : Progressive
Bits/(Pixel*Frame) : 0.092
Stream size : 91.9 MiB (94%)


Audio
ID : 2
Format : AAC
Format/Info : Advanced Audio Codec
Format profile : LC
Codec ID : 40
Duration : 5mn 4s
Bit rate mode : Variable
Bit rate : 152 Kbps
Maximum bit rate : 181 Kbps
Channel(s) : 2 channels
Channel positions : Front: L R
Sampling rate : 44.1 KHz
Compression mode : Lossy
Stream size : 5.51 MiB (6%)

 

 

http://letitbit.net/download/13180.16ac6b44ca82d9b8e3ceeb701798/Rick_Ross_ft_Nicki_Minaj_-_You_The_Boss.mp4.html

 

 

 

 

 

 

 

 

Dear visitor, you are viewing Rick Ross ft Nicki Minaj - You The Boss.mp4 as Guest.
We strongly recommend you to register and login to view hidden contents.

We tried to provide download links from best sources on internet .
our source are clean , safe and will check for any malicious .


Feel free to report dead links or a problem in Rick Ross ft Nicki Minaj - You The Boss.mp4 files .Your are allow to post your (mirror , subtitles, samples, free download, quality, crack keygen or whatever-related post) comments here.

Rick Ross ft Nicki Minaj - You The Boss.mp4

Free download Rick Ross ft Nicki Minaj - You The Boss.mp4.