Quick filter Tv shows only Movies only Games only Application only Music only E-books only


» » » French Montana Ft Drake, Rick Ross & Lil Wayne

looking for more ? search irfree.com .


French Montana Ft Drake, Rick Ross & Lil Wayne


7:47 pm Comments: Catgory: Music » MViD

18915061157.jpg

 

 

General
Complete name : French Montana Ft Drake, Rick
Ross & Lil Wayne – Pop That
(Explicit Version) {TriZy}.webm
Format : WebM
Format version : Version 2
File size : 111 MiB
Duration : 5mn 12s
Overall bit rate : 2 974 Kbps


Video
ID : 1
Format : VP8
Codec ID : V_VP8
Duration : 5mn 12s
Bit rate : 2 655 Kbps
Width : 1 280 pixels
Height : 720 pixels
Display aspect ratio : 16:9
Frame rate : 1 000.000 fps
Compression mode : Lossy
Bits/(Pixel*Frame) : 0.003
Stream size : 99.0 MiB (89%)
Language : English / English

Audio
ID : 2
Format : Vorbis
Format settings, Floor : 1
Codec ID : A_VORBIS
Duration : 5mn 12s
Bit rate mode : Variable
Bit rate : 192 Kbps
Channel(s) : 2 channels
Sampling rate : 44.1 KHz
Compression mode : Lossy
Stream size : 7.16 MiB (6%)
Language : English




http://letitbit.net/download/26333.2668bd5ca590a6d716776fbef0c3/French_Montana_Ft_Drake__Rick_Ross___Lil_Wayne___Pop_That_.webm.html








Dear visitor, you are viewing French Montana Ft Drake, Rick Ross & Lil Wayne as Guest.
We strongly recommend you to register and login to view hidden contents.

We tried to provide download links from best sources on internet .
our source are clean , safe and will check for any malicious .


Feel free to report dead links or a problem in French Montana Ft Drake, Rick Ross & Lil Wayne files .Your are allow to post your (mirror , subtitles, samples, free download, quality, crack keygen or whatever-related post) comments here.

French Montana Ft Drake, Rick Ross & Lil Wayne

Free download French Montana Ft Drake, Rick Ross & Lil Wayne .